Laut Ihrer SSL-Tabelle auf dieser Webseite bin ich mit 6mm an 7+4 außerhalb der 5-95% Schwankungsbreite, was mich erschüttert. Ob atemberaubende Abenteuer oder ausgetüftelte Wochenendtouren, stets sind… der arzt scheint ja viel von sich und seiner meßkunst zu halten. Die Kleinen haben ihren Wachstumsschub und dann kann es sein, das du wieder in der Norm liegst. Die letzten Jahre mit dem Nuvaring. Ich bin, wie mein Arzt sagt, nach \'alter Rechenmethode\' in der 8. Können das überhaupt schon Anzeichen sein. 4 Tage später war ich beim FA und auf dem US war eine kleine runde Fruchthöhle zu sehen (ca. Einkaufen im ersten Stadt-Hofladen der Schweiz Du achtest auf nachhaltige, saisonale und vor allem regionale Produkte? Das Kind ist aber sicher nicht zu klein weil ich zu wenig esse bin normalgewichtig und esse gut. Januar 2011 um 20:40 Guten Tag, mir liegt eine Frage, ganz besonders auf dem Herzen. War heute beim Fa und soweit war alles okay bin heute in ssw 8+0 udn das Herz schlägt . Mein zyklus indem ich schwanger wurde dauerte übrigens nur 23 tag, kann es sein das es deswegen kleiner ist? Eigentlich bin ich frohen Mutes, nur hat mich meine Ärztin sehr verunsichert und hatte keine … Irgendwann hab ich mich auf Ihre Brust gelegt und angemerkt "Wow, dein Herz schlägt aber kräftig. " Herz schlägt und Embryo bewegt sich. 5./6. Man sagte mir das der Eisprung 36h später ist. Bisherige Antworten. Am 26.06 habe ich positiv getestet. Auch hier aber wieder das Rätsel des normgerechten HCG-Wertes. Ca. Am Donnerstag hab ich wieder termin dann muss embryo gewachsen sein. Ich weiss es ist schwer (aus eigener Erfahrung) aber versuch ruhig zu bleiben und optimistisch auf den Montagstermin zu schauen. ich würde gerne wissen, ob noch Hoffnung besteht. Hallo Melanie, eine Länge von 4,2 mm kann in der Zeit von 5+3 bis 7+2 SSW vorliegen. Aber Obåcht, einmal nicht aufgepasst und -> Zack! Hallo ihr lieben . Login with your VRM account, and see all your sites in a list. Als er dann einen Blick in meinen Bauch per Ultraschall warf, wirkte er auf einmal sehr besorgt und nachdenklich: Er meinte, dass die Fruchthöhle viel zu klein wäre. 26 May 2014. ich hoffe hier einen weiteren Rat bzw. Datenschutz Am 30.5. hatten mein Mann und ich Geschlechtsverkehr. Das is meines Wissens nach sehr klein . bis her war alles inordnung was eine schwangerschaft mit sich bringt. spontan bereits ein sprungbereites Follikel vorhanden sowie zwei weitere Follikel, die ich nach Aussage der Ärztin "nicht weiter ernst nehmen" sollte. Search the world's information, including webpages, images, videos and more. Music. Ich habe keine Blutungen oder Beschwerden. HCG für die 8. Der Herzschlag war zu erkennen, wurde aber nicht gemessen. Herz schlägt und Embryo bewegt sich. 9ssw und mein baby ist zu klein und das herz schlägt nicht schnell genug hallo ihr lieben... bei mir wurde vor 5 wochen meine schwangerschaft festgestellt. Re: Das Herz schlägt! 4 Tage! Mein arzt meine der embryo sitzt vielleicht an einer stelle wo er nicht gut versorgt wird und deswegen so klein ist. Im us sah man total schön das schlagende herz und ich hätte luftsprünge machen können. von MelanieSchweizer am 30.05.2012, 08:13 Uhr . Ende 6. ssw sind 2 mm eigentlich perfekt. Am 23.06. habe ich einen positiven SS Test in Händen gehalten. Wächst er aber normal, so gibt es kaum einen Grund zur Beunruhigung. Aber anschließend meinte unsere FA das das Embryo ca. Habe mich gewogen bin zu klein Lustig Diät Spruch Drawstring Bag. Unser Online-Schuhschrank ist so groß, dass für jeden Style das Passende dabei ist. Der Link führt direkt zu deiner aktuellen Produkt- und Farbauswahl. Der Gasaustausch wird gestört, die Folge ist ein Sauerstoffmangel, der unbehandelt zum Tod führt. Und dies schon beim Embryo. eine Einschätzung zu bekommen... Material: 100% Baumwolle; … Dann der dämpfer, baby zu klein, er sagte es mir nicht genau aber das baby ist nur. Blutungen oder so hab ich nicht. Monitor and manage your Victron Energy system. Beitrag melden Antworten. Meine Ärztin hat mitgeteilt das der Embryo zu klein wäre (nur 14mm) und damit halb so groß wie normal. Glaube nicht das es förderlich ist wenn ich Übergewichtig bin. Ich soll statt in 4 Wochen in 2 Wochen nochmal zum Ultraschall kommen (Bild oben). Beitrag beantworten. Book. Im us sah man total schön das schlagende herz und ich hätte luftsprünge machen können. Er sieht Banzai, Shenzi und Ed grinsend näherkommen. Januar 2011 um 16:42 Letzte Antwort: 21. Jordan schlägt in jedem Baller-Herz Jordan produziert nicht nur die edelsten Sneaker, inzwischen hat die Marke alles was zum Baller-Lifestyle gehört – von Warm-ups und Shooting Shirts bis zu … Januar 2011 um 16:42 Letzte Antwort: 21. Together we deal with topics we care about, like feminism, mental health awareness, left-wing politics, social justice, veganism and sci-fi/fantasy-references. Herzliche Grüße VB, von Dr. med. Was steht eingentlich drin ..? Welche Erfahrung hat ihr gemacht. Er hat nur den mumu angeschaut da ich am vm ganz leicht rosa ausfluss hatte aber nur ganz wenig und ist auch schon wieder weg. Egal das Herz schlägt, das hat es letzte Woche nicht getan! Impressum Bach" TITLE "19. Ich möchte hier gerne noch schreiben, wie es weiter gegangen ist, falls andere Frauen mit ähnlichem Problem durch eine Google-Suche auf diese Seite kommen. Read more. Der Mutterpass 8. Re: Das Herz … seit vorgestern sieht man das herz schlagen und der arzt wundert sich darüber. So konnten wir dann nach dem die 7 Tage verstrichen waren und dann, bei dem dritten US eine weitere Schrumpfung und kein Herzschlag festgestellt wurde, sofort den Abbruch veranlassen. Es ist total schwer so früh überhaupt was zu sehen. http://www.bluni.de/index.php/a/schwanger_bio_ssl, Ende 6. Dafür Ist Keine Zeit. Man sagte mir, dass sei ein sehr guter Wert. zu allen Zeiten" INDEX 01 05:12:07 TRACK 04 AUDIO PERFORMER "J.S. KiWu-Klinik hat Besorgnis über die zu kurze SSL geäußert unf einen neuen US in einer Woche angesetzt. Als der Arzt den Ultraschall gemacht hat, sagte er es würde irgendwie komisch aussehen, er könne das Kind nicht richtig sehen. Βρείτε εδώ την Γερμανικά-Ελληνικά μετάφραση για schlagen στο PONS διαδικτυακό λεξικό! Nun meine Fragen: der Größe. 1) Kann trotz Auslösen der Eisprung später stattgefunden haben (es wurde bei IUI kein US mehr gemacht) und somit das Schwangerschaftsalter einfach jünger sein (6+2)? Wenn du nicht weißt, wann dein ES war, um so mehr! Das mit den sechs Mahlzeiten finde ich auch irgendwie komisch. nach langer Kinderwunschbehandlung bin ich nun endlich nach einer IVF Schwanger geworden - mit Zwillingen. Ich war bereits 4 mal beim FA zur Untersuchung und bei der vorletzten Untersuchung (8. more_horiz. Dafür Ist Hier Zu Wenig Platz. Wurde dir denn wenigstens Blut abgenommen um den hcG Spiegel zu kontrollieren? Ich hatte durch den frühen zweiten US ein Wochenende Zeit, um den Verlust der Schwangerschaft zu betrauern und konnte dann informiert zum dritten US gehen und mich gefasst um das Prozedere des Abbruchs kümmern. Nur mein freund wird nicht verstehen warum ich arbeiten gehe, wenn was passiert kann hoffe ich nicht das er mir die schuld gibt. Bei mir hat in der 7ssw, fast 8 ssw noch nichts gesehen, ausser Dottersack. ..ich hab damals am 24.12 positiv getestet. Das Herz, so scheint es, hat aber niemals aufgehört zu schlagen. Also mal ganz von forn. Alle Rechte vorbehalten. Vincenzo Bluni am 18.04.2017, Lieber Herr Dr. Bluni, Jetzt bin ich in der 13 ssw und alles ist in Ordnung. sternchen_1978 23.12.2008 | 13 Antworten. Wegen der Größe meinte er nur viel messen viel vermessen und dassmich statt 7+2 wohl eher erst in der 6 Woche sei! Ich soll also liegen und (fr)essen die nächste woche. SSW) hat meine FÄ festgestellt, dass der Embryo nur ... Hallo Dr. Bluni, Read more. 9 plus 2 war ich zum 2. beim US. Unser Herz schlägt für Schuhe - Ihres auch? Dort kann es zu Entzündungsreaktionen und Ödemen kommen. Frei.Wild Mitten ins Herz ℗ Rookies & Kings Released on: 2009-10-09 Auto-generated by YouTube. Und wenn man ihm dann verfallen ist, tut man lauter unvernünftige Dinge, wie alle anderen Tassen, Gläser und Trinkgefäße entsorgen. Soll jetzt eine woche in ks gehen, was ich tun werde aber im Büro gerade ganz schlecht ist. will der arzt ihm dann den popo verhauen, oder was? Danke schon mal für eure Antworten. Monat war sie dann wieder genau zeitgerecht entwickelt. Die sollte normalerweise nicht früher als nach einer Woche erfolgen, zumal wir sonst kaum eine adäquate Verlaufsbeurteilung vornehmen können. - und da meinte sie "Obwohl es so klein ist." [Pre-Chorus] Am Viel … Sommer, die Koffer gepackt mich nochmal umgedreht, Am nein ich pass hier nicht rein, C mir war die Welt zu klein. Jetzt bin ich natürlich total verunsichert. [Bridge 1] B5 G5 A5 3x B5 D5 A5 e|----- ... [Verse 4] B5 G5 Sand zu Öl, Mut zu Fleiß, B5 G5 denn ohne Arbeit wärst Du viel viel viel zu klein. Der Arzt sagte, er könne keinen Herzschlag sehen und der Embryo wäre auch zu klein. B F Das hier das ist unser Film, ob Happy End oder Trän’n, Gm Eb das wird von uns, erzählt. Habe an ZT 6 mit Predalon ausgelöst. Kinder, Dr. med. Glg Ana. Nachricht an laiply 4 Antworten: Re: … Evangelist - Da sprach Pilatus zu ihm" INDEX 01 06:36:55 TRACK 05 AUDIO PERFORMER "J.S. Scar springt durch die Flammen auf Simba zu. Ich bin jetzt bei 6+4 ... Lieber Herr Dr.Med Bluni, SSL war nur ca 4 mm und ich wurde auf 6+1 zurück gestuft. Stoffe und praktische Kinderkleidung.. Woche gut mit 80.000. Der Song "Bedingungslos" aus dem neuen Album "Muttersprache" (2015) CAPO 2 [Intro] Em G Am C x2 [Strophe 1] Em G Mein 16. fujin raijin zu picture of wind and thunder gods, early edo period, two panels national treasure, kyoto national museum sōtatsu began to work as a fan painter in kyoto later, he rose to work for the court as a producer of fine decorated papers for calligraphy he was highly influenced by kyoto s courtly culture sōtatsu met the great designer and calligrapher honami koetsu, and painted under designs in gold and … nach einer GonalF Stimulation ist bei mir ein Follikel herangereift und am 18.02 wurde mein Eisprung ausgelöst. Erst Woche später war dann alles da und es kam raus, dass ES 4 Tage später war. Der Embryo ist auch gewachsen (6 plus 4 war er 3,4 mm) Sie meint meine Chancen wären 50:50. Weil die hauptsaison beginnt und wir im Team nur zu zweit sind. Locutus 2. Zuvor habe ich die letzten 14 Jahre durchgehend hormonell verhütet. Man kann doch keine AS vorschlagen wenn das Herz noch schlägt! From $17.46. Das Herz schlägt zwar meistens bereits, dennoch ist der Embryo zu klein und zeigt kaum Wachstumsfortschritte. Schlägt das kleine Herz?“ Klar, dass du aufgeregt bist und dich riesig darauf freust, dein kleines Baby zu sehen. Charles 3.10 released with improved SSL (new SSL CA certificate install required), major new features and improvements. Fies einer schwangeren da so angst zu machen. Team geboren um mit papa reiten zu gehen All Over Print Tote Bag. den mit der kerze hab ich da nicht hingemacht!!! Wie war das bei euch so? Die Kleinen haben ihren Wachstumsschub und dann kann es sein, das du wieder in der Norm liegst. Das das kind die ganze Energie bekommt. Mach dir keine Sorgen wg. nimm sie als zeichen für die erleuchtung, die ich dem doktor wünsche. Forenarchiv. Stress dich bitte nicht. In der 8.ssw(7+schieß mich tot) war dann us mit herzschlag und embyro war 8.6 mm eas geht dann so flink. 1 Woche zurückhängt was ... Guten Morgen, Vielleicht holst du dir einfach noch eine zweite Meinung ein?!? Wenn er seine Messpunkte nur minimal anders setzen würde, wäre der Embryo schon wieder größer. Allerdings is die größe vom embryo gerade erst bei ssl 8,3 . Guten Abend. Daraufhin hat sie mich eine Woche zurückdatiert und mir gesagt sie hofft für mich das alles gut geht. Woche nur der Dottersack zu sehen.Ich würde auf die Aussage auch erstmal nicht zu viel geben und bei Gelegenheit wirklich mal über einen Arztwechsel nachdenken. Ansonsten schlägt das Herz und die Schwangerschaft scheint intakt zu sein. In jenem Zyklus war an ZT 5 (!) 4SSW) rein rechnerisch hätte ich ssw 6 sein müssen. Perfekter Klang ist mehr als nur ein Geräusch. Trockenes und sekundäres Ertrinken treten sehr selten auf. 8 SSW: Das Herz meines Babys schlägt zu langsam. Reisereportagen im GEO-Stil prägen den TOURENFAHRER seit über 30 Jahren. Frei.Wild Mensch oder Gott ℗ Rookies & Kings Released on: 2010-05-28 Auto-generated by YouTube. Vielen Dank schon mal Kostenlos alle Infos rund um Re: Herz schlägt zu schnell ! Aria (Tenor) - Ach windet euch nicht so" INDEX 01 08:35:65 TRACK 06 AUDIO PERFORMER "J.S. Steht und fällt doch alles mit dem us gerät und dem arzt. Herz schlägt nicht, Baby zu klein 21. US. SSW. Monat war sie dann wieder genau zeitgerecht entwickelt. Dafür Reicht Der Platz Nicht. A Mensch oder Gott című album megjelenését 2004 elejére ígérték, de a kiadóval keletkezett problémák miatt végül csak 2004. július 30-án jelent meg. US. Rumpf zu klein u herz schlägt bei 160: Hallo ich War gestern bei meinem Frauenarzt u er sagte mein Baby sein Herz schlägt bei 160 u sein Rumpf wäre ein bißchen zu klein is das schlimm ? Rechnerisch bin ich in der 9 Ssw (8+4). SSW: Embryo zu klein & zu langsamer Herzschlag. Zu kleines Herz - Einschränkungen? Das Herz hat aber kräftig ... Hallo Herr Dr. Bluni, In den frühen SSW ist es auch schwierig, richtig zu schallen weil eben alles noch so klein ist. ich habe folgende Sorgen: Ich bin verunsichert, Baby ist zu klein: Guten Morgen, gestern hatte ich meinen 2. Die Schwangerschaft Kleinen embryos mit herzschlag das aber dann wieder aufgehört hat zu schlagen. Mach dir keine Sorgen wg. SSW: Herzschlag da aber Embryo zu klein. Nutzungsbedingungen Oliver Beigel is on Facebook. Ich finde es allgemein schade wenn mann Kinder abtreibt auch wenn sie kein Herz haben stell mall vor deine Eltern hätten es so entscheiden und dich würde es garnicht geben Klar müssen… Januar 2011 um 20:40 Guten Tag, mir liegt eine Frage, ganz besonders auf dem Herzen. Dafür Ist Das Feld Zu Klein. geboren um mit papa reiten zu gehen All Over Print Tote Bag. Ich bin jetzt irgendwie total fertig habe nicht damit gerechnet das etwas nicht stimmt. Deswegen soll ich jetzt 6 Mahlzeiten am Tag zu mir nehmen. A5 Ich kenn ihn nicht, doch ich weiß, er würde lachen. und was heißt "muß gewachsen sein"? wenn du weiter zu diesem gehen mußt, dann nimm ihn nicht allzu ernst, er ist fehlbar. Alle Infos über alle 40 Wochen! 294km by kaywinnet, released 07 October 2017 1. Letzte ss waren auch Zwillinge, der eine blutete bis zur17 ssw ab, davon 10 Wochen durchweg mit regelstarken Blutungen. Von der ssw wissen sie nichts und kann ich auch noch nichts sagen. Google has many special features to help you find exactly what you're looking for.